Рекомендуем:
торрент игры » Музыка » ENSEMBLE OF CHRIST THE SAVIOUR AND CRUDE MOTHER EARTH - Third World War: Police Hell (2020) FLAC скачать торрент на ПК

ENSEMBLE OF CHRIST THE SAVIOUR AND CRUDE MOTHER EARTH - Third World War: Police Hell (2020) FLAC

/ Просмотров:  20 / Комментариев: 0
0 0
ENSEMBLE OF CHRIST THE SAVIOUR AND CRUDE MOTHER EARTH - Third World War: Police Hell (2020) FLAC


Название: Third World War: Police Hell
Исполнитель: ENSEMBLE OF CHRIST THE SAVIOUR AND CRUDE MOTHER EARTH
Год: 2020
Жанр: Hardcore Punk
Страна: Russia, Tver

Продолжительность: 00:55:40
Формат/Кодек: FLAC
Битрейт аудио: Lossless|WEB-DL

Лицензия

[spoiler=Трек-лист]
01. (Intro) Feed the well-fed [00:00:59]
02. Stay rich, the Government!! [00:03:33]
03. Our President [00:05:54]
04. Lived once.. [00:02:10]
05. Silence in stables [00:05:45]
06. Police Hell [00:05:16]
07. Steel is Hardened in Prisons [00:04:18]
08. Invasion [00:03:14]
09. Second-rate Dictator [00:04:30]
10. We will shake the Boat! (RABFUCK cover) [00:03:49]
11. Monument to a Russian Village [00:01:54]
12. My Little Christian [00:04:26]
13. Make a Dome Tattoo over Russia [00:04:24]
14. Non Grada Person [00:02:50]
15. Happy Self-Isolation!! [00:00:05]
16. Old maple [00:02:27]
[spoiler=Отчёт auCDtect Task manager:][/spoiler]

[spoiler=foobar2000 1.6.1 / Замер динамического диапазона (DR)]
foobar2000 1.6.1 / Замер динамического диапазона (DR) 1.1.1
Дата отчёта: 2020-10-10 16:17:31

--------------------------------------------------------------------------------
Анализ: ENSEMBLE OF CHRIST THE SAVIOUR AND CRUDE MOTHER EARTH / Third World War: Police Hell
--------------------------------------------------------------------------------

DR Пики RMS Продолжительность трека
--------------------------------------------------------------------------------
DR11 -0.41 дБ -15.67 дБ 0:59 01-(Intro) Feed the well-fed
DR8 0.00 дБ -9.91 дБ 3:34 02-Stay rich, the Government!!
DR9 0.00 дБ -12.28 дБ 5:54 03-Our President
DR14 -8.24 дБ -26.04 дБ 2:11 04-Lived once..
DR9 0.00 дБ -11.33 дБ 5:45 05-Silence in stables
DR7 0.00 дБ -9.36 дБ 5:16 06-Police Hell
DR12 0.00 дБ -14.49 дБ 4:19 07-Steel is Hardened in Prisons
DR9 0.00 дБ -11.27 дБ 3:14 08-Invasion
DR8 0.00 дБ -11.49 дБ 4:30 09-Second-rate Dictator
DR8 0.00 дБ -10.49 дБ 3:50 10-We will shake the Boat! (RABFUCK cover)
DR20 0.00 дБ -25.42 дБ 1:55 11-Monument to a Russian Village
DR12 0.00 дБ -13.29 дБ 4:26 12-My Little Christian
DR10 0.00 дБ -11.80 дБ 4:24 13-Make a Dome Tattoo over Russia
DR7 0.00 дБ -10.40 дБ 2:50 14-Non Grada Person
DR13 0.00 дБ -13.35 дБ 0:06 15-Happy Self-Isolation!!
DR11 0.00 дБ -12.86 дБ 2:27 16-Old maple
--------------------------------------------------------------------------------

Количество треков: 16
Реальные значения DR: DR11

Частота: 44100 Гц
Каналов: 2
Разрядность: 16
Битрейт: 808 кбит/с
Кодек: FLAC
================================================================================
[/spoiler]

[spoiler=Lossless Audio Checker]
Lossless Audio Checker 2.0.7 logfile from Saturday 10 October 2020 04:22:10 PM

File: C:ECS and CME (2020) Third World War_Police Hell [FLAC]1-(Intro) Feed the well-fed.flac
Result: Upsampled

File: C:ECS and CME (2020) Third World War_Police Hell [FLAC]2-Stay rich, the Government!!.flac
Result: Clean

File: C:ECS and CME (2020) Third World War_Police Hell [FLAC]3-Our President.flac
Result: Clean

File: C:ECS and CME (2020) Third World War_Police Hell [FLAC]4-Lived once.flac
Result: Clean

File: C:ECS and CME (2020) Third World War_Police Hell [FLAC]5-Silence in stables.flac
Result: Clean

File: C:ECS and CME (2020) Third World War_Police Hell [FLAC]6-Police Hell.flac
Result: Clean

File: C:ECS and CME (2020) Third World War_Police Hell [FLAC]7-Steel is Hardened in Prisons.flac
Result: Clean

File: C:ECS and CME (2020) Third World War_Police Hell [FLAC]8-Invasion.flac
Result: Clean

File: C:ECS and CME (2020) Third World War_Police Hell [FLAC]9-Second-rate Dictator.flac
Result: Clean

File: C:ECS and CME (2020) Third World War_Police Hell [FLAC]10-We will shake the Boat! (RABFUCK cover).flac
Result: Clean

File: C:ECS and CME (2020) Third World War_Police Hell [FLAC]11-Monument to a Russian Village.flac
Result: Clean

File: C:ECS and CME (2020) Third World War_Police Hell [FLAC]12-My Little Christian.flac
Result: Clean

File: C:ECS and CME (2020) Third World War_Police Hell [FLAC]13-Make a Dome Tattoo over Russia.flac
Result: Clean

File: C:ECS and CME (2020) Third World War_Police Hell [FLAC]14-Non Grada Person.flac
Result: Clean

File: C:ECS and CME (2020) Third World War_Police Hell [FLAC]15-Happy Self-Isolation!!.flac
Result: Clean

File: C:ECS and CME (2020) Third World War_Police Hell [FLAC]16-Old maple.flac
Result: Clean
[/spoiler]
[spoiler=Дополнительная информация:]

АХСиМСЗ Facebook
ZYMOTIC PRODUCTIONS Youtube
[/spoiler]

https://youtu.be/Sub1-sSqcn0
https://youtu.be/9A3tOniJOus
https://youtu.be/cCLx0avjDwk
https://youtu.be/6u3_fq6eTQ4
Скачать торрент ENSEMBLE OF CHRIST THE SAVIOUR AND CRUDE MOTHER EARTH - Third World War: Police Hell (2020) FLAC Размер: 20,98 Kb Скачиваний: 12 Название файла: ENSEMBLE OF CHRIST THE SAVIOUR AND CRUDE MOTHER EARTH - Third World War: Police Hell (2020) FLAC



  • Статус: проверено
  • .torrent скачан: 12 раз
  • Размер:


Комментарии 0
Комментариев пока нет. Стань первым!
Добавить комментарий
Код безопасности*